#TITLE:It's My Style;
#SUBTITLE:- Ground Defence Force Mao-chan Opening;
#ARTIST:堀江由衣;
#TITLETRANSLIT:;
#SUBTITLETRANSLIT:;
#ARTISTTRANSLIT:Yui Horie;
#CREDIT:Lisek;
#BANNER:bn.jpg;
#BACKGROUND:bg.jpg;
#LYRICSPATH:mao.lrc;
#CDTITLE:cdtitle.gif;
#MUSIC:mao.mp3;
#OFFSET:-0.260;
#SAMPLESTART:39.930;
#SAMPLELENGTH:11.266;
#SELECTABLE:YES;
#BPMS:0.000=127.060,80.000=63.530,82.000=127.060;
#STOPS:;
#BGCHANGES:0.000=mao.avi=1.000=1=1=0,
99999=-nosongbg-=1.000=0=0=0 // don't automatically add -songbackground-
;
// cache tags:
#FIRSTBEAT:0.000;
#LASTBEAT:122.500;
#SONGFILENAME:songs/Otaku's Dream 3rd Anime Mix/[Lisek] It's My Style - Ground Defence Force Mao-chan OP/mao.sm;
#HASMUSIC:1;
#HASBANNER:1;
#MUSICLENGTH:59.820;
// end cache tags

//---------------dance-single - ----------------
#NOTES:
     dance-single:
     :
     Hard:
     7:
     0.392,0.563,0.084,0.084,0.067,154.000,5.000,5.000,0.000,0.000:
0000
0001
0100
0010
0000
0010
0100
0001
,
0000
1000
0001
0100
0010
1000
0001
0000
,
0000
1000
0010
0100
0000
0100
0010
1000
,
2000
0000
3001
0000
0000
0001
0001
0000
,
0001
0000
0000
0000
1000
0000
0000
1000
0001
0000
1000
0000
0000
0000
0001
0000
,
0000
0000
0000
0000
,
0100
0000
0001
0000
0100
0001
0000
0000
,
0002
0000
0000
1003
0000
0000
0000
0000
,
1000
0000
0100
0000
1000
0001
0000
1000
,
0000
0000
0000
0000
0000
0000
0000
1000
,
0001
0000
1000
0000
0001
1000
0000
0002
,
0000
0000
0000
1003
0000
0000
0000
0000
,
0000
1000
0100
1000
0000
0001
0010
0001
,
0000
0001
0010
0100
1000
0100
0010
0000
,
0000
0001
1000
0001
0000
1000
0001
1000
,
0000
0000
0001
0000
0100
0000
0010
0000
1000
0100
0000
0100
1000
0000
0000
0000
,
0000
1000
0001
1000
0000
0010
1000
0010
,
0000
1000
0001
0100
0010
1000
0001
0000
,
0000
1000
0100
1000
0000
0001
0010
0001
,
0000
1000
0001
0100
0010
1000
1000
0000
,
0001
1000
0001
1000
0001
1000
0001
1000
0001
0000
1000
0000
0001
0000
1000
0000
,
1001
0000
0001
0100
0001
0100
1001
0000
,
1100
0000
0000
0000
0000
0000
0000
0000
1001
0000
0000
0000
0110
0000
0000
0001
,
1000
1000
0001
0100
0010
1000
0010
0100
,
0000
0000
0000
0000
0001
0000
1000
0010
,
0000
1000
0000
0000
1000
0000
0100
0010
,
0000
0000
0010
0200
0000
0000
0000
0000
,
0000
1000
1300
2000
0000
0000
0000
0000
,
3001
0000
0100
0001
0000
0001
0100
0010
,
0000
0010
0100
0001
0000
1000
0001
0100
,
0010
1000
0001
0000
1000
0001
0000
0000
;

//---------------dance-single - ----------------
#NOTES:
     dance-single:
     :
     Beginner:
     1:
     0.076,0.102,0.017,0.251,0.000,16.000,1.000,15.000,0.000,0.000:
0001
0000
0000
0000
,
0000
0000
0000
0000
,
1000
0000
0000
0000
,
0000
0000
0000
0000
,
0020
0000
0000
0000
,
0030
0000
0000
0000
,
0200
0000
0000
0000
,
0000
0000
0300
0000
,
0002
0000
0000
0000
,
0003
0000
0000
0000
,
0020
0000
0000
0000
,
0000
0000
0030
0000
,
0002
0000
0000
0000
,
0000
0000
0003
0000
,
2000
0000
0000
0000
,
0000
0000
3000
0000
,
0020
0000
0000
0000
,
0000
0000
0030
0000
,
0200
0000
0000
0000
,
0000
0000
0300
0000
,
0000
0000
0002
0000
,
0000
0000
0000
0000
,
0003
0000
2000
0000
,
0000
0000
0000
0000
,
3000
0000
0002
0000
,
0000
0003
2000
0000
,
0000
0000
0000
3000
,
0000
0000
0000
0000
,
0002
0000
0000
0000
,
0000
0000
0003
0000
,
0000
0000
0000
0000
2002
3003
0000
0000
;

//---------------dance-single - ----------------
#NOTES:
     dance-single:
     :
     Easy:
     3:
     0.198,0.229,0.017,0.033,0.000,80.000,1.000,2.000,0.000,0.000:
0000
1000
0000
0100
,
1000
0001
0100
0010
,
0000
0100
0000
0001
,
1000
0001
0000
1000
,
0001
0000
0100
0000
0010
0000
0000
1000
,
0000
0000
0000
0000
,
1000
0000
0100
0000
0010
0000
0000
0001
,
0000
0000
0000
1000
0000
0000
0000
0000
,
0001
0000
0100
0000
0010
0000
0000
0100
,
0000
0000
0000
0000
,
0001
0000
1000
0000
0001
0000
0000
0100
,
0000
0000
0000
0010
0000
0000
0000
0000
,
0000
1000
0000
0001
,
0000
1000
0001
1000
,
0000
0001
0000
1000
,
0000
0001
1000
0001
,
0000
1000
0000
0001
,
0000
1000
0001
1000
,
0000
0001
0000
1000
,
0000
0001
1000
0001
,
2000
0000
3001
1000
,
0001
1000
0001
1000
,
0001
0000
0100
0010
,
1000
0100
0010
0001
,
0010
0000
0001
1000
,
0001
1000
1000
0001
,
1000
0001
2000
0000
,
0000
0000
3001
0000
,
0000
0000
0000
0001
,
0000
1000
0000
0001
,
1000
0001
1001
0000
;

//---------------dance-single - ----------------
#NOTES:
     dance-single:
     :
     Medium:
     5:
     0.277,0.282,0.000,0.067,0.000,112.000,0.000,4.000,0.000,0.000:
1000
0001
0100
0010
,
1000
0000
0001
0000
0100
0010
0100
0000
,
0001
1000
0001
0100
,
0001
0000
0001
0000
0000
0001
0001
0000
,
1000
0000
0010
0000
1000
1000
0000
1000
,
0000
0010
0100
0001
,
0010
0000
0001
0000
0010
0010
0000
0000
,
0020
0000
0000
0030
0010
0000
0000
0000
,
0001
0100
0010
1000
,
0100
0000
0000
0000
0000
0000
0000
1000
,
1000
0000
0001
0000
1000
0000
0000
0200
,
0000
0000
0000
1300
0000
0000
0000
0000
,
0000
1000
0000
1000
0000
0001
0000
0001
,
0000
1000
0001
1000
,
0000
0001
0000
0001
0000
1000
0000
1000
,
0000
0001
1000
0001
,
0000
1000
0000
1000
0000
0001
0000
0001
,
0000
0001
1000
0001
,
0000
0001
0000
0001
0000
1000
0000
1000
,
0000
1000
0001
1000
,
0001
1000
0001
1000
0001
0000
1000
0000
,
0001
1000
1000
0100
,
1000
0000
0001
0100
,
0010
1000
1000
0100
,
0010
0000
0001
0001
,
0010
0010
0001
0001
,
1000
1000
0020
0000
,
0000
0100
0100
0230
0000
0000
0300
0000
,
0001
1000
0001
1000
,
0001
0100
0010
1000
,
0001
0000
0100
0000
0001
1000
0000
0000
;
